18+ Collider 2018 Movies 720p HDRip x264 Torrent Free Download

Seeders : 377   &   Leechers : 262      10-08-2018 (3 days)
18+ Collider 2018 Movies 720p HDRip x264 Torrent Download
Added: ago by nehalpuja ***** in Movies   784.6 MB   Hits : 18
Info Hash: F596124AD26B075CDA8C78BDE3EC88D4DF7AC6FC Download
18+ Collider 2018 Movies 720p HDRip x264 Torrent Download

Anonymous and Direct Download movies , software , shows...

Fast Safe Anonymous
movies, software, shows...

Torrent Description



18+ Collider 2018 Movies 720p HDRip x264 5.1 ESubs with Sample ☻rDX☻
===============================================================================================

SCREEN SHOTS:



or

http://iphonehosting.eu/2018/8/health/1.html

File size : 776 MiB
Duration : 1 h 24 min
Overall bit rate : 1 288 kb/s
Movie name : Collider 2018 Movies 720p HDRip x264 5.1 ESubs ☻rDX☻

Video
ID : 2
Format : AVC
Format/Info : Advanced Video Codec
Format profile : [email protected]
Format settings, CABAC : Yes
Format settings, ReFrames : 4 frames
Codec ID : V_MPEG4/ISO/AVC
Duration : 1 h 24 min
Bit rate : 903 kb/s
Width : 1 280 pixels
Height : 528 pixels
Display aspect ratio : 2.40:1
Original display aspect ratio : 2.40:1
Frame rate mode : Constant
Frame rate : 23.976 (24000/1001) FPS
Color space : YUV
Chroma subsampling : 4:2:0
Bit depth : 8 bits
Scan type : Progressive
Bits/(Pixel*Frame) : 0.056
Stream size : 529 MiB (68%)
Title : ☻rDX☻
Writing library : x264

Audio
ID : 1
Format : AC-3
Format/Info : Audio Coding 3
Mode extension : CM (complete main)
Format settings, Endianness : Big
Codec ID : A_AC3
Duration : 1 h 24 min
Bit rate mode : Constant
Bit rate : 384 kb/s
Channel(s) : 6 channels
Channel positions : Front: L C R, Side: L R, LFE
Sampling rate : 48.0 kHz
Frame rate : 31.250 FPS (1536 spf)
Bit depth : 16 bits
Compression mode : Lossy
Delay relative to video : -21 ms
Stream size : 232 MiB (30%)
Title : ☻rDX☻
Language : English
Default : No
Forced : No

Text
ID : 3
Format : UTF-8
Codec ID : S_TEXT/UTF8
Codec ID/Info : UTF-8 Plain Text
Title : ☻rDX☻
Language : English
Default : Yes
Forced : No



IMDB : http://www.imdb.com/title/tt4538294




Sharing Widget


No Comments For This Torrent . Be The First to Comment

You must Login to Comment . Click Here to Login

Menu 1

Some content in menu 1.

18+ Collider 2018 Movies 720p HDRip x264 5 1 ESubs with Sample ☻rDX (Size: 784.6 MB)
  18+ Collider 2018 Movies 720p HDRip x264 5 1 ESubs with Sample ☻rDX 784.6 MB
tracker name
udp://tracker.leechers-paradise.org:6969/announce
udp://zer0day.ch:1337/announce
udp://open.demonii.com:1337/announce
udp://tracker.coppersurfer.tk:6969/announce
udp://exodus.desync.com:6969/announce
µTorrent compatible trackers list

Relative Torrents

Torrent Name Size Age SEED LEECH
Jack Irish S04E06 XviD-AFG[TGx]
Posted by    mazemaze16   in   TV
606.6 MB 30 seconds 87 376
Better Call Saul 4x02 Respira ITA ENG 100p WEBMux DD5 1 x264-Morpheus mkv
Posted by    ppb1   in   TV
2.2 GB 30 seconds 475 808
Skyscraper 2018 1080p HDRip x264 [ExYu-Sbs]
Posted by    Botanicar   in   TV
1.6 GB 30 seconds 706 997
Enter The Wild 2018 HDRip XviD-AVID[TGx]
Posted by    mazemaze16   in   Movies
1.2 GB 4 minutes 6 255
Upgrade (2018) 1080p WEB-DL 6CH 1 5GB - kvCage
Posted by    MkvCage   in   Movies
1.6 GB 4 minutes 712 641