18+ Tell Me Your Name A K A Along Came Torrent Free Download

Seeders : 337   &   Leechers : 435      10-08-2018 (3 days)
18+ Tell Me Your Name A K A Along Came Torrent Download
Added: ago by nehalpuja ***** in Movies   994.8 MB   Hits : 17
Info Hash: 2F2EF63847529870DF3652B1B09BBE8F32772DE8 Download
18+ Tell Me Your Name A K A Along Came Torrent Download

Anonymous and Direct Download movies , software , shows...

Fast Safe Anonymous
movies, software, shows...

Torrent Description



18+ Tell Me Your Name A.K.A. Along Came The Devil 2018 Movies 720p HDRip x264 5.1 ESubs with Sample ☻rDX☻
===============================================================================================

SCREEN SHOTS:



or

http://iphonehosting.eu/2018/8/hardware/1.html

File size : 984 MiB
Duration : 1 h 28 min
Overall bit rate : 1 558 kb/s
Movie name : 18+ Tell Me Your Name 2018 Movies 720p HDRip x264 5.1 ESubs ☻rDX☻

Video
ID : 2
Format : AVC
Format/Info : Advanced Video Codec
Format profile : [email protected]
Format settings, CABAC : Yes
Format settings, ReFrames : 4 frames
Codec ID : V_MPEG4/ISO/AVC
Duration : 1 h 28 min
Bit rate : 917 kb/s
Width : 1 280 pixels
Height : 480 pixels
Display aspect ratio : 2.667
Frame rate mode : Constant
Frame rate : 23.976 (24000/1001) FPS
Color space : YUV
Chroma subsampling : 4:2:0
Bit depth : 8 bits
Scan type : Progressive
Bits/(Pixel*Frame) : 0.062
Stream size : 560 MiB (57%)
Title : ☻rDX☻
Writing library : x264

Audio
ID : 1
Format : E-AC-3
Format/Info : Enhanced Audio Coding 3
Format settings, Endianness : Big
Codec ID : A_EAC3
Duration : 1 h 28 min
Bit rate mode : Constant
Bit rate : 640 kb/s
Channel(s) : 6 channels
Channel positions : Front: L C R, Side: L R, LFE
Sampling rate : 48.0 kHz
Frame rate : 187.500 FPS (256 spf)
Compression mode : Lossy
Delay relative to video : -21 ms
Stream size : 404 MiB (41%)
Title : ☻rDX☻
Language : English
Default : Yes
Forced : No

Text
ID : 3
Format : UTF-8
Codec ID : S_TEXT/UTF8
Codec ID/Info : UTF-8 Plain Text
Title : ☻rDX☻
Language : English
Default : No
Forced : No



IMDB : http://www.imdb.com/title/tt3619070




Sharing Widget


No Comments For This Torrent . Be The First to Comment

You must Login to Comment . Click Here to Login

Menu 1

Some content in menu 1.

18+ Tell Me Your Name A K A Along Came The Devil 2018 Movies 720p HDR (Size: 994.8 MB)
  18+ Tell Me Your Name A K A Along Came The Devil 2018 Movies 720p HDR 994.8 MB
tracker name
udp://tracker.leechers-paradise.org:6969/announce
udp://zer0day.ch:1337/announce
udp://open.demonii.com:1337/announce
udp://tracker.coppersurfer.tk:6969/announce
udp://exodus.desync.com:6969/announce
µTorrent compatible trackers list

Relative Torrents

Torrent Name Size Age SEED LEECH
Jack Irish S04E06 XviD-AFG[TGx]
Posted by    mazemaze16   in   TV
606.6 MB 1 minute 87 376
Better Call Saul 4x02 Respira ITA ENG 100p WEBMux DD5 1 x264-Morpheus mkv
Posted by    ppb1   in   TV
2.2 GB 1 minute 475 808
Skyscraper 2018 1080p HDRip x264 [ExYu-Sbs]
Posted by    Botanicar   in   TV
1.6 GB 1 minute 706 997
Enter The Wild 2018 HDRip XviD-AVID[TGx]
Posted by    mazemaze16   in   Movies
1.2 GB 5 minutes 6 255
Upgrade (2018) 1080p WEB-DL 6CH 1 5GB - kvCage
Posted by    MkvCage   in   Movies
1.6 GB 5 minutes 712 641