Vishwaroopam 2 (2018) Tamil Pre DVDRip - Torrent Free Download

Seeders : 361   &   Leechers : 911      10-08-2018 (3 days)
Vishwaroopam 2 (2018) Tamil Pre DVDRip - Torrent Download
Added: ago by MMRHD ***** in Movies   510.0 MB   Hits : 21
Info Hash: 0C64B8359EB011BDC3A39C934B20D36B702F49AE Download
Vishwaroopam 2 (2018) Tamil Pre DVDRip - Torrent Download

Anonymous and Direct Download movies , software , shows...

Fast Safe Anonymous
movies, software, shows...
Vishwaroopam
Action /Thriller  .   148 min   8.4/10
Director : Kamal Haasan  
Tags: Vishwaroopam  2  (2018)  Tamil  Pre  DVDRip  

Released:
25 Jan 2013
Vishwanathan, a Kathak dance teacher in New York, is in a rather happy marriage with Nirupama who is a nuclear oncologist. She hires a detective to keep a watch on her husband, who apparently ends up in a wrong place that reveals Vishwanathan's true identity.

Torrent Description



Vishwaroopam 2 (2018) Tamil Pre DVDRip - 720p - AVC - MP3 - 500MB - Original Audio [MMRHD]






Quote:

http://www.imdb.com/title/tt2677064/
Movie Name: Vishwaroopam 2 (2018)
Genres: Action, Thriller
Director: Kamal Haasan
Writers: Kamal Haasan, Atul Tiwari (hindi dialogue)
Stars: Kamal Haasan, Rahul Bose, Shekhar Kapur
Language: Tamil
Subtitle: No
Encoder: MMRHD













General
Complete name : Vishwaroopam 2 (2018)[Tamil Pre DVDRip - 720p - AVC - MP3 - 500MB - Original Audio].mkv
Format : Matroska
File size : 509 MiB
Duration : 2 h 5 min
Overall bit rate : 567 kb/s




Video
ID : 1
Format : AVC
Duration : 2 h 5 min
Bit rate : 500 kb/s
Width : 1 280 pixels
Height : 544 pixels
Display aspect ratio : 2.35:1
Stream size : 441 MiB (87%)




Audio
ID : 2
Format : AC-3
Duration : 2 h 5 min
Bit rate mode : Constant
Bit rate: 64.0 kb/s
Channel(s) : 2 channels
Channel positions : Front: L R
Stream size : 57.4 MiB (11%)










Sharing Widget


No Comments For This Torrent . Be The First to Comment

You must Login to Comment . Click Here to Login

Menu 1

Some content in menu 1.

Vishwaroopam 2 (2018) Tamil Pre DVDRip - 720p - AVC - MP3 - 500MB - Or (Size: 510.0 MB)
  Vishwaroopam 2 (2018) Tamil Pre DVDRip - 720p - AVC - MP3 - 500MB - Or 510.0 MB
tracker name
udp://tracker.leechers-paradise.org:6969/announce
udp://zer0day.ch:1337/announce
udp://open.demonii.com:1337/announce
udp://tracker.coppersurfer.tk:6969/announce
udp://exodus.desync.com:6969/announce
µTorrent compatible trackers list

Relative Torrents

Torrent Name Size Age SEED LEECH
Jack Irish S04E06 XviD-AFG[TGx]
Posted by    mazemaze16   in   TV
606.6 MB 51 seconds 87 376
Better Call Saul 4x02 Respira ITA ENG 100p WEBMux DD5 1 x264-Morpheus mkv
Posted by    ppb1   in   TV
2.2 GB 51 seconds 475 808
Skyscraper 2018 1080p HDRip x264 [ExYu-Sbs]
Posted by    Botanicar   in   TV
1.6 GB 51 seconds 706 997
Enter The Wild 2018 HDRip XviD-AVID[TGx]
Posted by    mazemaze16   in   Movies
1.2 GB 4 minutes 6 255
Upgrade (2018) 1080p WEB-DL 6CH 1 5GB - kvCage
Posted by    MkvCage   in   Movies
1.6 GB 4 minutes 712 641